#TITLE:#56;
#SUBTITLE:~AMR re-edit~;
#ARTIST:Beatdrop;
#TITLETRANSLIT:;
#SUBTITLETRANSLIT:;
#ARTISTTRANSLIT:;
#CREDIT:;
#BANNER:#56-banner.png;
#BACKGROUND:#56-bg.png;
#LYRICSPATH:;
#CDTITLE:AMR.png;
#MUSIC:#56.mp3;
#OFFSET:-0.049;
#SAMPLESTART:40.616;
#SAMPLELENGTH:12.000;
#SELECTABLE:YES;
#BPMS:0.000=143.998;
#STOPS:;
#BGCHANGES:;
// cache tags:
#FIRSTBEAT:16.000;
#LASTBEAT:212.250;
#SONGFILENAME:Songs/Chilean Keyboard Megapack 3/(AMR) #56/#56.SM;
#HASMUSIC:1;
#HASBANNER:1;
#MUSICLENGTH:93.394;
// end cache tags

//---------------dance-single - Blank----------------
#NOTES:
     dance-single:
     Blank:
     Challenge:
     12:
     0.890,0.966,0.717,0.021,1.000,513.000,67.000,2.000,0.000,0.000:
0000
0000
0000
0000
,
0000
0000
0000
0000
,
0000
0000
0000
0000
,
0000
0000
0000
0000
,
1000
0010
0000
0010
0100
0000
0001
0000
0010
0000
0100
0000
1000
0000
0000
0000
,
0001
0100
0000
0100
0010
0000
1000
0000
0001
0000
0010
0000
0100
0000
0000
0000
,
1000
0100
0000
0010
0001
0000
0100
0000
0010
0000
0100
0000
0001
0000
0100
1000
,
0001
0000
0000
0100
0010
0000
0000
0010
0100
0000
0000
0001
0010
0100
1000
0001
,
0100
0010
0100
0001
1000
0100
0010
0001
0000
1000
0000
0100
0000
0010
0100
1000
,
0001
0000
0000
0001
0100
0000
0010
0000
0100
0000
0001
0000
1000
0000
0000
0000
,
0100
0000
0000
0010
0100
0000
1000
0000
0001
0000
0100
0000
0010
0000
0000
0000
,
0100
0000
0000
0010
0100
0000
0001
0000
0010
0000
0100
0000
0010
0000
0000
0000
,
0001
1000
0010
0100
0010
1000
0100
0010
0000
0001
0000
0100
0000
0001
0010
0100
,
1000
0000
0000
0100
0010
0000
0001
0000
0100
0000
0010
0000
1000
0000
0000
0000
,
0100
0000
0000
0010
0001
0000
0010
0000
0100
0000
1000
0000
0001
0000
0000
0000
,
0110
0000
0000
1000
0101
0000
0000
0001
1100
0000
0000
0010
0100
0001
1000
0100
,
0010
0001
0010
0100
0010
0001
0010
0100
0000
1000
0000
0010
0000
0100
0001
0100
,
0010
0100
1000
0100
0001
0100
1000
0100
0000
0001
0000
0010
0000
0100
1000
0100
,
0010
0100
1000
0100
0010
0100
0010
0100
0000
0010
0000
0001
0000
1000
0010
0100
,
0010
1000
0010
0100
0010
1000
0010
1000
0000
0100
0000
0010
0000
0100
0001
0100
,
1000
0100
0010
0100
1000
0100
0001
0100
0000
1000
0000
0010
0000
0100
0001
1000
,
0100
0010
0001
0010
0100
1000
0001
0100
0000
0010
0000
0100
0000
0001
1000
0100
,
0010
0001
0100
0010
0100
0001
1000
0100
0000
0010
0000
0100
0000
1000
0001
0100
,
0010
1000
0010
0100
0001
1000
0100
0010
0000
0001
0000
0100
0000
0010
0100
0001
,
1000
0100
1000
0100
1000
0100
1000
0100
0000
0010
0000
0001
0000
0100
0001
0100
,
0001
0100
0001
0100
0001
0100
0001
0100
0000
0010
0000
1000
0000
0001
0010
0001
,
0010
0001
0010
0001
0010
0001
0010
0001
0000
0100
0000
0010
0000
0100
1000
0100
,
1000
0100
1000
0100
1000
0100
1000
0100
0000
0010
0000
0100
0000
0001
0010
0100
,
1000
0001
0010
0100
1000
0001
0010
0100
0000
0010
0000
0001
0000
1000
0010
0100
,
0001
1000
0010
0100
0001
1000
0010
0100
0000
0001
0000
0010
0000
0100
1000
0001
,
0010
0100
1000
0001
0010
0100
1000
0001
0000
0010
0000
0100
0000
0010
0001
0100
,
0010
0100
0001
0100
0001
0010
0100
0001
0000
0010
0000
1000
0000
0001
0010
0100
,
1001
0000
1100
0000
0001
0010
0100
0010
0001
0000
0101
0000
1010
0000
0000
0000
,
0101
0000
1010
0000
0100
0010
1000
0010
0100
0000
0101
0000
0011
0000
0000
0000
,
1100
0000
0011
0000
0001
0010
1000
0010
0001
0000
0101
0000
1100
0000
0000
0000
,
0011
0101
0000
0101
1010
1100
0011
1001
,
0110
0000
0011
0000
0100
1000
0100
0010
0001
0000
0100
0000
0010
0000
0000
0000
,
1010
0000
0110
0000
1000
0001
0100
0010
0001
0000
0100
0000
1000
0000
0000
0000
,
1001
0000
0110
0000
0100
0010
1000
0100
0010
0000
0001
0000
0010
0000
0000
0000
,
0110
0000
0011
0000
0000
0000
0011
0000
0110
0000
0011
0000
0100
0010
0000
1000
,
0002
1003
0001
1000
0001
1000
0001
1000
0001
1000
0001
1000
0001
1000
0001
0100
,
0001
0100
0001
0100
0001
0100
0001
0100
0001
0100
0001
0100
0001
0100
0001
1000
,
0100
1000
0100
1000
0100
1000
0100
1000
0100
1000
0100
1000
0100
1000
0100
0010
,
0001
0100
0001
0100
0001
0100
0001
0100
0001
0100
0001
0100
0001
0100
0011
0000
,
0011
1001
0100
0011
0100
1010
0001
1100
,
0010
0101
0001
1100
0010
1010
0100
0110
,
0001
1010
0100
1010
0001
0101
0010
0110
,
0001
0101
1000
0101
0010
1100
0001
0011
,
1000
0011
0100
1100
0100
1010
0001
0101
,
0010
1100
0010
1001
0010
0101
1000
1100
,
0010
0101
0100
1010
0100
0011
1000
0101
,
0010
1001
0100
0011
1000
1010
0100
0011
,
1000
0200
0000
0000
0000
0000
0000
0000
0000
0000
0000
0000
0000
0000
0000
0000
,
0000
0300
0000
0000
0000
0000
0000
0000
0000
0000
0000
0000
0000
0000
0000
0000
;
